Skip to main content

Lotus Live at State Theater on 2004-11-09

Audio Preview

etree
Lotus Live at State Theater on 2004-11-09

by Lotus



Lotus
November 9th, 2004
State Theater
Falls Church, VA

*** THIS IS A 16-BIT FILESET INTENDED FOR AUDIO CD ***

Taped and Transferred by Jacob (taper@eduguess.net)

SOURCE: mbho 603a/ka200n (DINa, on 30' stand, at soundboard) > UA-5 (16-bit/48k) > jb3
PROCESSING: jb3 > 1394 > Sound Forge (resampling to 44.1) > CD Wave Editor (trk) > WAV > FLAC > wav > flac 1.20a

DISK ONE
01
02
03
04
05

DISK TWO
01
02
03
04
05


Collection Lotus
Band/Artist Lotus
Venue State Theater
Location Falls Church VA

Source mbho 603a/ka200n (DINa, on 30' stand, at soundboard) > UA-5 (16-bit/48k) > jb3
Lineage jb3 > 1394 > Sound Forge (resampling to 44.1) > CD Wave Editor (trk) > wav > flac > wav > flac 1.20a
Taped by Jacob Smith
Transferred by Jacob Smith

Notes

length expanded size cdr WAVE problems fmt ratio filename
1:04.50 11407244 B --- -- ---xx flac 0.3887 lotus2004-11-09_mbho_d1t01.flac
10:45.62 113923868 B --- -- ---xx flac 0.6205 lotus2004-11-09_mbho_d1t02.flac
10:38.74 112717292 B --- -- ---xx flac 0.6182 lotus2004-11-09_mbho_d1t03.flac
9:09.23 96897740 B --- -- ---xx flac 0.6001 lotus2004-11-09_mbho_d1t04.flac
12:07.39 128334572 B --- -- ---xx flac 0.6267 lotus2004-11-09_mbho_d1t05.flac
10:56.66 115873676 B --- -- ---xx flac 0.5994 lotus2004-11-09_mbho_d2t01.flac
13:08.22 139054988 B --- -- ---xx flac 0.6394 lotus2004-11-09_mbho_d2t02.flac
11:28.01 121365596 B --- -- ---xx flac 0.6206 lotus2004-11-09_mbho_d2t03.flac
8:57.67 94884428 B --- -- ---xx flac 0.6210 lotus2004-11-09_mbho_d2t04.flac
88:17.29 934459404 B 0.6164 (9 files)

comment
Reviews

Reviewer: lowgs13 - favoritefavoritefavoritefavorite - December 4, 2012
Subject: Setlist
1-Crowd
2-Dark Brown Earth
3-Sift
4-Dance Of The Giant Incapacitating Vine
5-Bubonic Tonic
6-Sid
7-Spiritualize
8-Arupa
9-Sunrain
DOWNLOAD OPTIONS
In Collection
Lotus
In Collection
Live Music Archive
Uploaded by
peterwking
on 8/30/2009
Views
522
Favorites
2
Reviews
1
SIMILAR ITEMS (based on metadata)
Lotus
by Lotus
etree
eye 12,961
favorite 1
comment 2
favoritefavoritefavoritefavorite ( 2 reviews )
Source: B&K 4023 > Lunatec V2 > DA-P1> Hosa ODL 276 > Nomad JB3
Lotus
by Lotus
etree
eye 692
favorite 2
comment 3
favoritefavoritefavoritefavoritefavorite ( 3 reviews )
Source: Josephson C42 > Lunatec V3 > M1 @ stage lip
Lotus
by Lotus
etree
eye 16,521
favorite 3
comment 4
favoritefavoritefavoritefavoritefavorite ( 4 reviews )
Source: mk4 > kc5 > cmc6 > v2 > mini-me > dap-1
Lotus
by Lotus
etree
eye 3,080
favorite 5
comment 5
favoritefavoritefavoritefavoritefavorite ( 5 reviews )
Source: Board/mic mixed at about 70/30 (full source below)
Lotus
by Lotus
etree
eye 6,916
favorite 1
comment 0
Source: SBD > Harman Kardon CDR
Lotus
by Lotus
etree
eye 4,210
favorite 1
comment 3
favoritefavoritefavoritefavoritefavorite ( 3 reviews )
Source: SPC4Cards>Tascom HDP2
Lotus
by Lotus
etree
eye 2,478
favorite 8
comment 8
favoritefavoritefavoritefavoritefavorite ( 8 reviews )
Source: SBD > Marantz PMD-670 (16/44.1KHz)
Lotus
by Lotus
etree
eye 584
favorite 2
comment 2
favoritefavoritefavoritefavoritefavorite ( 2 reviews )
Source: Peluso cemc-6(cards, DIN, hanging from the ceiling in the sweet spot)>V3>m-audio transit>wavelab 4.0(16@44.8)
Lotus
by Lotus
etree
eye 20,712
favorite 7
comment 5
favoritefavoritefavoritefavoritefavorite ( 5 reviews )
Source: AKG 460/CK61 (on-stage) > MP-2 > TR_mod SBM-1 > Nomad Jukebox 3 (16bit/44.1Hz)
Lotus
by Lotus
etree
eye 3,458
favorite 1
comment 2
favoritefavoritefavoritefavoritefavorite ( 2 reviews )
Source: Schoeps MK5 Card/DIN > Oade m118 > KC5 > CMC6 > Oade Ambient R4 Pro